[ฝรั่ง]-[ใหม่ กับ SuperHQ ฉบับสมบูรณ์มาสเตอร์บลูเรย์] The Secret Life of Pets (2016) : เรื่องลับแก๊งขนฟู [1080p][พากย์ไทย5.1+อังกฤษ5.1][บรรยายไทย+อังกฤษ][เสียงและบรรยายไทย บลูเรย์มา

ภาพตัวอย่าง https://static.tt-torrent.com/1478922839-439ffb86a2a4ccd97a18c4bb0bfbd8e8.jpghttps://static.tt-torrent.com/1478922839...
[ฝรั่ง]-[ใหม่!!!สิ้นสุดการรอคอย กับ SuperHQ ฉบับสมบูรณ์มาสเตอร์บลูเรย์] The Secret Life of Pets (2016) : เรื่องลับแก๊งขนฟู [1080p][พากย์ไทย5.1+อังกฤษ5.1][บรรยายไทย+อังกฤษ][เสียงและบรรยายไทย บลูเรย์มาสเตอร์ PGS VOB และ SRT iTunes]



   The Secret Life of Pets (2016) : เรื่องลับแก๊งขนฟู

เป็นการบอกเล่าเรื่องราวชวนอมยิ้มกับสารพัดวีรกรรมสุ ดแสบของแก๊งขนฟู หรือ บรรดาสัตว์เลี้ยงของคุณๆ ทั้งหลาย เมื่อทุกคนไม่อยู่บ้าน ไม่ว่าจะเป็นแอบจ้องจะเขมิบอาหารในตู้เย็น หรือแผนลับปาร์ตี้สุดฮาร์ดคอร์ บอกเลยว่างานนี้ เห็นหน้าตานิ่งๆ ฟูฟ่องไปด้วยความน่ารัก แต่ความแสบนี่ เกินพิกัดเลยนะเออ

General

Unique ID                      : 188596288450414950442528569955088576393 (0x8DE252ED40C9BCBC8DE967F43267AF89)
Complete name                  : The.Secret.Life.of.Pets.2016.1080p.SuperHQ.AC3.x264.BD.mkv
Format                         : Matroska
Format version                 : Version 4 / Version 2
File size                      : 3.94 GiB
Duration                       : 1h 26mn
Overall bit rate               : 6 528 Kbps
Movie name                     : The.Secret.Life.of.Pets.2016.1080p.SuperHQ.AC3.x264.BD.
Encoded date                   : UTC 2016-11-09 16:27:14
Writing application            : mkvmerge v9.5.0 ( Quiet Fire ) 32bit
Writing library                : libebml v1.3.4 + libmatroska v1.4.5

Video
ID                             : 1
Format                         : AVC
Format/Info                    : Advanced Video Codec
Format profile                 : The.Secret.Life.of.Pets.2016.
Format settings, CABAC         : Yes
Format settings, ReFrames      : 4 frames
Codec ID                       : V_MPEG4/ISO/AVC
Duration                       : 1h 26mn
Bit rate                       : 5 163 Kbps
Width                          : 1 920 pixels
Height                         : 1 040 pixels
Display aspect ratio           : 1.85:1
Frame rate mode                : Constant
Frame rate                     : 23.976 fps
Color space                    : YUV
Chroma subsampling             : 4:2:0
Bit depth                      : 8 bits
Scan type                      : Progressive
Bits/(Pixel*Frame)             : 0.108
Stream size                    : 3.09 GiB (78%)
Title                          : The.Secret.Life.of.Pets.2016.1080p.SuperHQ.AC3.x264.BD
Writing library                : x264 core 130 r2273 b3065e6
Encoding settings              : cabac=1 / ref=4 / deblock=1:-3:-3 / analyse=0x3:0x113 / me=umh / subme=11 / psy=1 / psy_rd=1.00:0.00 / mixed_ref=1 / me_range=64 / chroma_me=1 / trellis=2 / 8x8dct=1 / cqm=0 / deadzone=21,11 / fast_pskip=0 / chroma_qp_offset=-2 / threads=12 / lookahead_threads=1 / sliced_threads=0 / nr=0 / decimate=1 / interlaced=0 / bluray_compat=0 / constrained_intra=0 / bframes=4 / b_pyramid=2 / b_adapt=2 / b_bias=0 / direct=3 / weightb=1 / open_gop=0 / weightp=1 / keyint=250 / keyint_min=23 / scenecut=40 / intra_refresh=0 / rc_lookahead=120 / rc=2pass / mbtree=1 / bitrate=5163 / ratetol=1.0 / qcomp=0.60 / qpmin=0 / qpmax=69 / qpstep=4 / cplxblur=20.0 / qblur=0.5 / vbv_maxrate=99999 / vbv_bufsize=99999 / nal_hrd=none / ip_ratio=1.40 / aq=1:1.00
Language                       : English
Default                        : Yes
Forced                         : Yes

Audio #1
ID                             : 2
Format                         : AC-3
Format/Info                    : Audio Coding 3
Mode extension                 : CM (complete main)
Format settings, Endianness    : Big
Codec ID                       : A_AC3
Duration                       : 1h 26mn
Bit rate mode                  : Constant
Bit rate                       : 640 Kbps
Channel(s)                     : 6 channels
Channel positions              : Front: L C R, Side: L R, LFE
Sampling rate                  : 48.0 KHz
Compression mode               : Lossy
Stream size                    : 396 MiB (10%)
Title                          : TH AC3 BD MASTER
Language                       : Thai
Default                        : Yes
Forced                         : Yes

Audio #2
ID                             : 3
Format                         : AC-3
Format/Info                    : Audio Coding 3
Mode extension                 : CM (complete main)
Format settings, Endianness    : Big
Codec ID                       : A_AC3
Duration                       : 1h 26mn
Bit rate mode                  : Constant
Bit rate                       : 640 Kbps
Channel(s)                     : 6 channels
Channel positions              : Front: L C R, Side: L R, LFE
Sampling rate                  : 48.0 KHz
Compression mode               : Lossy
Stream size                    : 396 MiB (10%)
Title                          : EN AC3 BD MASTER
Language                       : English
Default                        : No
Forced                         : No

Text #1
ID                             : 4
Format                         : VobSub
Codec ID                       : S_VOBSUB
Codec ID/Info                  : Picture based subtitle format used on DVDs
Title                          : TH 1080P BD MASTER
Language                       : Thai
Default                        : No
Forced                         : No

Text #2
ID                             : 5
Format                         : VobSub
Codec ID                       : S_VOBSUB
Codec ID/Info                  : Picture based subtitle format used on DVDs
Title                          : TH 1080P YELLOW
Language                       : Thai
Default                        : No
Forced                         : No

Text #3
ID                             : 6
Format                         : VobSub
Codec ID                       : S_VOBSUB
Codec ID/Info                  : Picture based subtitle format used on DVDs
Title                          : TH 480P
Language                       : Thai
Default                        : No
Forced                         : No

Text #4
ID                             : 7
Format                         : UTF-8
Codec ID                       : S_TEXT/UTF8
Codec ID/Info                  : UTF-8 Plain Text
Title                          : TH SRT ITUNES MASTER
Language                       : Thai
Default                        : No
Forced                         : No

Text #5
ID                             : 8
Format                         : PGS
Codec ID                       : S_HDMV/PGS
Codec ID/Info                  : Picture based subtitle format used on BDs/HD-DVDs
Title                          : TH BD MASTER
Language                       : Thai
Default                        : Yes
Forced                         : Yes

Text #6
ID                             : 9
Format                         : PGS
Codec ID                       : S_HDMV/PGS
Codec ID/Info                  : Picture based subtitle format used on BDs/HD-DVDs
Title                          : EN BD
Language                       : English
Default                        : No
Forced                         : No

Menu
00:00:00.000                   : en:00:00:00.000
00:05:05.847                   : en:00:05:05.847
00:09:24.063                   : en:00:09:24.063
00:13:18.840                   : en:00:13:18.840
00:18:03.666                   : en:00:18:03.666
00:22:14.458                   : en:00:22:14.458
00:28:51.855                   : en:00:28:51.855
00:32:54.848                   : en:00:32:54.848
00:36:55.839                   : en:00:36:55.839
00:42:27.295                   : en:00:42:27.295
00:44:46.767                   : en:00:44:46.767
00:50:21.227                   : en:00:50:21.227
00:54:45.407                   : en:00:54:45.407
00:59:33.987                   : en:00:59:33.987
01:02:36.544                   : en:01:02:36.544
01:07:12.362                   : en:01:07:12.362
01:13:06.841                   : en:01:13:06.841
01:16:04.602                   : en:01:16:04.602
01:18:48.057                   : en:01:18:48.057
01:19:58.836                   : en:01:19:58.836

หมวดหมู่การ์ตูน
ขนาด3.94 GB (4,232,988,586 bytes)
อัพโหลดเมื่อ2016-11-12 10:53:59 (3 ปี)
โหลดเสร็จ629 ครั้ง
แบ่งปันโดยDeVGrU.ทีม
จัดการไฟล์