สมัครสมาชิกฟรี


เข้าสู่ระบบ


(Colo) Doctor Who season 1-9 ด๊อกเตอร์ฮู ข้ามเวลากู้โลก ปี 1-9 + ตอนพิเศษ [พากย์ไทยEng][ซับไทย]




Format                           : MPEG-4

Format profile                   : Base Media / Version 2

Codec ID                         : mp42

File size                        : 81.6 GiB

Duration                         : 40mn 56s

Overall bit rate                 : 1 645 Kbps

Encoded date                     : UTC 2016-04-21 17:40:43

Tagged date                      : UTC 2016-04-21 17:40:43

Writing application              : TMPGEnc Video Mastering Works 6 Version. 6.1.0.21

Video

ID                               : 2

Format                           : AVC

Format/Info                      : Advanced Video Codec

Format profile                   : High@L3.1

Format settings, CABAC           : Yes

Format settings, ReFrames        : 5 frames

Format settings, GOP             : M=1, N=32

Codec ID                         : avc1

Codec ID/Info                    : Advanced Video Coding

Duration                         : 40mn 56s

Bit rate mode                    : Constant

Bit rate                         : 1 516 Kbps

Nominal bit rate                 : 2 000 Kbps / 2 000 Kbps

Width                            : 1 280 pixels

Height                           : 720 pixels

Display aspect ratio             : 16:9

Frame rate mode                  : Constant

Frame rate                       : 25.000 fps

Standard                         : NTSC

Color space                      : YUV

Chroma subsampling               : 4:2:0

Bit depth                        : 8 bits

Scan type                        : Progressive

Bits/(Pixel*Frame)               : 0.066

Stream size                      : 444 MiB (92%)

Writing library                  : x264 core 144

Encoding settings                : cabac=1 / ref=5 / deblock=1:0:0 / analyse=0x3:0x113 / me=hex / subme=7 / psy=1 / psy_rd=1.00:0.00 / mixed_ref=1 / me_range=16 / chroma_me=1 / trellis=1 / 8x8dct=1 / cqm=1 / deadzone=21,11 / fast_pskip=1 / chroma_qp_offset=-2 / threads=36 / lookahead_threads=5 / sliced_threads=0 / slices=1 / nr=0 / decimate=1 / interlaced=0 / minigop=0 / stitchable=1 / constrained_intra=0 / bframes=3 / b_pyramid=0 / b_adapt=1 / b_bias=0 / direct=1 / weightb=1 / open_gop=0 / weightp=2 / keyint=300 / keyint_min=25 / scenecut=40 / intra_refresh=0 / rc_lookahead=40 / rc=cbr / mbtree=1 / bitrate=2000 / ratetol=1.0 / qcomp=0.60 / qpmin=3 / qpmax=69 / qpstep=4 / vbv_maxrate=2000 / vbv_bufsize=2000 / nal_hrd=cbr / filler=1 / ip_ratio=1.40 / aq=1:1.00

Encoded date                     : UTC 2016-04-21 17:40:43

Tagged date                      : UTC 2016-04-21 17:40:43

Color primaries                  : BT.709-5, BT.1361, IEC 61966-2-4, SMPTE RP177

Transfer characteristics         : BT.709-5, BT.1361

Matrix coefficients              : BT.709-5, BT.1361, IEC 61966-2-4 709, SMPTE RP177

Audio

ID                               : 1

Format                           : AAC

Format/Info                      : Advanced Audio Codec

Format version                   : Version 4

Format profile                   : LC

Codec ID                         : 40

Duration                         : 40mn 56s

Bit rate mode                    : Variable

Bit rate                         : 125 Kbps

Maximum bit rate                 : 576 Kbps

Channel(s)                       : 2 channels

Channel positions                : Front: L R

Sampling rate                    : 48.0 KHz

Stream size                      : 36.7 MiB (8%)

Encoded date                     : UTC 2016-04-21 17:40:43

Tagged date                      : UTC 2016-04-21 17:40:43



โหลดฟรี100%
หมวดหมู่Series
ขนาด81.61 GB (87,622,954,489 bytes)
อัพโหลดเมื่อ2016-06-24 07:10:10 (4 ปี)
ปล่อยล่าสุด2020-06-10 01:41:02 (1 เดือน)
โหลดเสร็จ467 ครั้ง
Tag US-Series
แบ่งปันโดยSeedy
จำนวนไฟล์
[ดูรายการเต็ม]
โหลด/ปล่อย
[ดูรายการเต็ม]
0 ปล่อย, 0 โหลด = 0 เพียร์