สมัครสมาชิกฟรี


เข้าสู่ระบบ


[HD ชัด ชนโรง!!] Detective Conan The Movie 20th [The Darkest Nightmare] (2016) : ยอดนักสืบจิ๋วโคนัน เดอะมูฟวี่ 20 [ปริศนารัตติกาลทมิฬ ] [720p]-[เสียงไทยโรง]




โดยเรื่องราวเริ่มขึ้น เมื่อเกิดการจารกรรมข้อมูลสายลับในสำนักงานตำรวจญี่ปุ่น โดยมือขวา ของหมาย 2 องค์กรชุดดำ และหลบหนีไปได้อย่างชำนาญ อามูโร่ โทรุ (ตำรวจสายลับ) หรือโค้ดเนม เบอร์เบิ้น และ อากากิ ชูอิจิ (FBI) พยายามขัดขวางจนเกิดเหตุการณ์ระเบิดอย่างรุนแรง ทำให้หญิงสาวปริศนามือขวาของหมายเลข 2 องค์กรชุดดำ ประสบอุบัติเหตุตกลงสะพานไปอย่างไร้ร่องรอย โชคชะตาได้นำมาให้พบพานกัน! ในขณะที่พิพิธภัณฑ์สัตว์น้ำโทโตะได้ทำการตกแต่งใหม่ครั้งใหญ่ ซึ่งพวกโคนันได้มาเที่ยวเยี่ยมชมชิงช้าสวรรค์แบบสองล้อหมุนครั้งแรกของโลกก็ได้พบกับหญิงปริศนาซึ่งได้รับบาดเจ็บหนักเข้าโดยบังเอิญ ดูเหมือนว่าเธอจะสูญเสียความจำอีกด้วย โคนันและขบวนการนักสืบเยาวชนจึงตัดสินใจจะทำให้ควาทรงจำของเธอกลับคืนมา ในขณะเดียวกัน ไฮบาระ ก็รู้สึกถึงความผิดปกติ ว่าผู้หญิงคนนี้มีสีตาซ้ายและขวาไม่เหมือนกัน!



General

Unique ID                                : 238268371957142957670879369977580445953 (0xB340D1B96702273A8293F6888DAB6101)

Complete name                            : E:\Detective.Conan.The.Movie.20th.mkv

Format                                   : Matroska

Format version                           : Version 4 / Version 2

File size                                : 1.87 GiB

Duration                                 : 1 h 51 min

Overall bit rate                         : 2 412 kb/s

Movie name                               : www.HiDefHitz.com

Encoded date                             : UTC 2016-10-19 08:51:52

Writing application                      : mkvmerge v8.9.0 ('Father Daughter') 64bit

Writing library                          : libebml v1.3.3 + libmatroska v1.4.4

Video

ID                                       : 1

Format                                   : AVC

Format/Info                              : Advanced Video Codec

Format profile                           : Baseline@L3.1

Format settings, CABAC                   : No

Format settings, ReFrames                : 3 frames

Codec ID                                 : V_MPEG4/ISO/AVC

Duration                                 : 1 h 51 min

Bit rate                                 : 2 172 kb/s

Width                                    : 1 280 pixels

Height                                   : 720 pixels

Display aspect ratio                     : 16:9

Frame rate mode                          : Constant

Frame rate                               : 30.000 FPS

Standard                                 : NTSC

Color space                              : YUV

Chroma subsampling                       : 4:2:0

Bit depth                                : 8 bits

Scan type                                : Progressive

Bits/(Pixel*Frame)                       : 0.079

Stream size                              : 1.69 GiB (90%)

Title                                    : Detective.Conan.The.Movie.20th.The.Darkest.Nightmare.2016.720p.HD.AC3.THEATER-Zakky

Language                                 : Japanese

Default                                  : Yes

Forced                                   : Yes

Color range                              : Limited

Audio

ID                                       : 2

Format                                   : AC-3

Format/Info                              : Audio Coding 3

Mode extension                           : CM (complete main)

Format settings, Endianness              : Big

Codec ID                                 : A_AC3

Duration                                 : 1 h 51 min

Bit rate mode                            : Constant

Bit rate                                 : 192 kb/s

Channel(s)                               : 2 channels

Channel positions                        : Front: L R

Sampling rate                            : 48.0 kHz

Frame rate                               : 31.250 FPS (1536 spf)

Compression mode                         : Lossy

Stream size                              : 153 MiB (8%)

Title                                    : TH AC3 THEATER ZAKKY

Language                                 : Thai

Default                                  : Yes

Forced                                   : Yes



โหลดฟรี100%
หมวดหมู่การ์ตูน
ขนาด1.87 GB (2,009,794,346 bytes)
อัพโหลดเมื่อ2016-10-19 20:37:16 (4 ปี)
ปล่อยล่าสุด2020-05-10 21:41:02 (2 เดือน)
โหลดเสร็จ1,154 ครั้ง
แบ่งปันโดยGhost
จำนวนไฟล์
[ดูรายการเต็ม]
โหลด/ปล่อย
[ดูรายการเต็ม]
0 ปล่อย, 0 โหลด = 0 เพียร์