Finding Dory [ผจญภัยดอรี่ขี้ลืม 2016] พากย์ไทย 1920 x 1080P

ภาพตัวอย่าง https://static.tt-torrent.com/1479489188-2565.jpghttps://static.tt-torrent.com/1479489188...


General
Complete name                            :Finding Dory.mp4
Format                                   : MPEG-4
Format profile                           : Base Media / Version 2
Codec ID                                 : mp42
File size                                : 2.21 GiB
Duration                                 : 1h 37mn
Overall bit rate mode                    : Variable
Overall bit rate                         : 3 264 Kbps
Encoded date                             : UTC 2016-11-01 04:18:07
Tagged date                              : UTC 2016-11-01 04:18:07
gsst                                     : 0
gstd                                     : 5824493

Video
ID                                       : 1
Format                                   : AVC
Format/Info                              : Advanced Video Codec
Format profile                           : High@L4.0
Format settings, CABAC                   : Yes
Format settings, ReFrames                : 1 frame
Codec ID                                 : avc1
Codec ID/Info                            : Advanced Video Coding
Duration                                 : 1h 37mn
Bit rate                                 : 3 070 Kbps
Maximum bit rate                         : 20.6 Mbps
Width                                    : 1 920 pixels
Height                                   : 1 080 pixels
Display aspect ratio                     : 16:9
Frame rate mode                          : Constant
Frame rate                               : 23.976 fps
Color space                              : YUV
Chroma subsampling                       : 4:2:0
Bit depth                                : 8 bits
Scan type                                : Progressive
Bits/(Pixel*Frame)                       : 0.062
Stream size                              : 2.08 GiB (94%)
Tagged date                              : UTC 2016-11-01 04:21:55
Color primaries                          : BT.709
Transfer characteristics                 : BT.709
Matrix coefficients                      : BT.709

Audio
ID                                       : 2
Format                                   : AAC
Format/Info                              : Advanced Audio Codec
Format profile                           : LC
Codec ID                                 : 40
Duration                                 : 1h 37mn
Bit rate mode                            : Variable
Bit rate                                 : 192 Kbps
Maximum bit rate                         : 201 Kbps
Channel(s)                               : 2 channels
Channel positions                        : Front: L R
Sampling rate                            : 44.1 KHz
Compression mode                         : Lossy
Stream size                              : 133 MiB (6%)
Title                                    : IsoMedia File Produced by Google, 5-11-2011
Language                                 : Thai
Encoded date                             : UTC 2016-11-01 04:20:16
Tagged date                              : UTC 2016-11-01 04:21:55

หมวดหมู่การ์ตูน
ขนาด2.21 GB (2,376,874,882 bytes)
อัพโหลดเมื่อ2016-11-19 00:21:17 (3 ปี)
โหลดเสร็จ172 ครั้ง
แบ่งปันโดยWinai_Chimsuk
จัดการไฟล์