สมัครสมาชิกฟรี


เข้าสู่ระบบ


[จีน]-[Netflix] King’s War/The Legend of Chu & Han ฉู่ฮั่น ศึกชิงบัลลังก์สะท้านปฐพี [เสียงจีน]-[บรรยายไทย + อังกฤษ]-[ซับไทย MASTER From Netflix]-[Soundtrack บรรยายไทย]-WEB-DL.H.264.1080p.




เครดิต AleXa@LaKraTos

[จีน]-•[Netflix]•  King’s War / The Legend of Chu & Han ฉู่ฮั่น ศึกชิงบัลลังก์สะท้านปฐพี By หมูสลาตัน [เสียงจีน]-[บรรยายไทย + อังกฤษ]-[ซับไทย MASTER From Netflix]-[Soundtrack บรรยายไทย]-WEB-DL.H.264.1080p.

210 ปีก่อนคริสต์ศักราช ระหว่างความวุ่นวายหลังจากจิ๋นซีฮ่องเต้สวรรคต นักรบกบฏเซี่ยงอวี่และหลิวปังจึงต่อสู้เพื่อควบคุมจักรวรรดิจีน

Format                      : Matroska

Format version              : Version 4 / Version 2

File size                   : 1.82 GiB

Duration                    : 45 min 6 s

Overall bit rate mode       : Variable

Overall bit rate            : 5 774 kb/s

Video

ID                          : 1

Format                      : AVC

Format/Info                 : Advanced Video Codec

Format profile              : High@L4

Format settings, CABAC      : Yes

Format settings, ReFrames   : 4 frames

Codec ID                    : V_MPEG4/ISO/AVC

Duration                    : 45 min 6 s

Bit rate mode               : Variable

Bit rate                    : 5 531 kb/s

Maximum bit rate            : 20.0 Mb/s

Width                       : 1 920 pixels

Height                      : 1 080 pixels

Display aspect ratio        : 16:9

Frame rate mode             : Constant

Frame rate                  : 25.000 FPS

Color space                 : YUV

Chroma subsampling          : 4:2:0

Bit depth                   : 8 bits

Scan type                   : Progressive

Bits/(Pixel*Frame)          : 0.107

Stream size                 : 1.74 GiB (96%)

Writing library             : x264 core 148 r2714 2daf636

Encoding settings           : cabac=1 / ref=4 / deblock=1:0:0 / analyse=0x3:0x111 / me=umh / subme=10 / psy=1 / psy_rd=1.00:0.00 / mixed_ref=1 / me_range=120 / chroma_me=1 / trellis=2 / 8x8dct=1 / cqm=0 / deadzone=21,11 / fast_pskip=1 / chroma_qp_offset=-2 / threads=8 / lookahead_threads=2 / sliced_threads=0 / nr=0 / decimate=1 / interlaced=0 / bluray_compat=0 / stitchable=1 / constrained_intra=0 / bframes=16 / b_pyramid=2 / b_adapt=2 / b_bias=0 / direct=3 / weightb=1 / open_gop=0 / weightp=2 / keyint=250 / keyint_min=126 / scenecut=0 / intra_refresh=0 / rc_lookahead=250 / rc=crf / mbtree=1 / crf=24.0 / qcomp=0.50 / qpmin=6 / qpmax=51 / qpstep=4 / vbv_maxrate=20000 / vbv_bufsize=25000 / crf_max=0.0 / nal_hrd=vbr / filler=0 / ip_ratio=1.40 / aq=1:0.80

Default                     : Yes

Forced                      : No

DURATION                    : 00:45:05.920000000

HANDLER_NAME                : Video Media Handler

Audio

ID                          : 2

Format                      : E-AC-3

Format/Info                 : Enhanced Audio Coding 3

Format settings, Endianness : Big

Codec ID                    : A_EAC3

Duration                    : 45 min 6 s

Bit rate mode               : Constant

Bit rate                    : 128 kb/s

Channel(s)                  : 2 channels

Channel positions           : Front: L R

Sampling rate               : 48.0 kHz

Frame rate                  : 187.500 FPS (256 spf)

Bit depth                   : 32 bits

Compression mode            : Lossy

Stream size                 : 41.3 MiB (2%)

Title                       : Mandarin [Original] [2.0]

Language                    : Chinese

Service kind                : Complete Main

Default                     : Yes

Forced                      : No

DURATION                    : 00:45:06.080000000

HANDLER_NAME                : Audio Media Handler

Text #1

ID                          : 3

Format                      : UTF-8

Codec ID                    : S_TEXT/UTF8

Codec ID/Info               : UTF-8 Plain Text

Title                       : Simplified Chinese

Language                    : Chinese-Hans

Default                     : No

Forced                      : No

DURATION                    : 00:42:30.680000000

Text #2

ID                          : 4

Format                      : UTF-8

Codec ID                    : S_TEXT/UTF8

Codec ID/Info               : UTF-8 Plain Text

Title                       : English

Language                    : English

Default                     : No

Forced                      : No

DURATION                    : 00:45:05.320000000

Text #3

ID                          : 5

Format                      : UTF-8

Codec ID                    : S_TEXT/UTF8

Codec ID/Info               : UTF-8 Plain Text

Title                       : Thai

Language                    : Thai

Default                     : No

Forced                      : No

DURATION                    : 00:42:30.560000000

Text #4

ID                          : 6

Format                      : UTF-8

Codec ID                    : S_TEXT/UTF8

Codec ID/Info               : UTF-8 Plain Text

Title                       : Vietnamese

Language                    : Vietnamese

Default                     : No

Forced                      : No

DURATION                    : 00:45:05.320000000

Text #5

ID                          : 7

Format                      : UTF-8

Codec ID                    : S_TEXT/UTF8

Codec ID/Info               : UTF-8 Plain Text

Title                       : Bulgarian

Language                    : Bulgarian

Default                     : No

Forced                      : No

DURATION                    : 00:45:05.320000000

Text #6

ID                          : 8

Format                      : UTF-8

Codec ID                    : S_TEXT/UTF8

Codec ID/Info               : UTF-8 Plain Text

Title                       : Traditional Chinese

Language                    : Chinese-Hant

Default                     : No

Forced                      : No

DURATION                    : 00:42:30.560000000










โหลดฟรี100%
หมวดหมู่Series
ขนาด176.89 GB (189,932,451,160 bytes)
อัพโหลดเมื่อ2019-11-25 12:28:20 (8 เดือน)
ปล่อยล่าสุด2019-12-31 10:41:02 (6 เดือน)
โหลดเสร็จ20 ครั้ง
Tag หนังจีนชุด
แบ่งปันโดยjejathailand
จำนวนไฟล์
[ดูรายการเต็ม]
โหลด/ปล่อย
[ดูรายการเต็ม]
0 ปล่อย, 0 โหลด = 0 เพียร์