สมัครสมาชิกฟรี


เข้าสู่ระบบ


[ฝรั่ง]-[Mini HD]Epic บุกอาณาจักรคนต้นไม้ [2013][1080p][พากย์:อังกฤษ-ไทย][SUB:อังกฤษ-ไทย]




General

Unique ID                                : 233998781818269475045024447176935130705 (0xB00A86AD884A6B5C82EA00CD2D6EC651)

Complete name                            : C:\Users\Administrator\Desktop\[Mini HD]Epic 2013.1080p\[Mini HD]Epic 2013.1080p.mkv

Format                                   : Matroska

Format version                           : Version 4 / Version 2

File size                                : 4.14 GiB

Duration                                 : 1h 42mn

Overall bit rate                         : 5 778 Kbps

Encoded date                             : UTC 2016-10-30 23:07:19 / UTC 2016-10-30T14:47:05Z

Writing application                      : mkvmerge v8.3.0 ('Over the Horizon') 64bit

Writing library                          : libebml v1.3.1 + libmatroska v1.4.2 / Lavf55.12.0

Video

ID                                       : 1

Format                                   : AVC

Format/Info                              : Advanced Video Codec

Format profile                           : Main@L4

Format settings, CABAC                   : Yes

Format settings, ReFrames                : 4 frames

Codec ID                                 : V_MPEG4/ISO/AVC

Duration                                 : 1h 42mn

Bit rate                                 : 3 706 Kbps

Width                                    : 1 920 pixels

Height                                   : 800 pixels

Display aspect ratio                     : 2.40:1

Original display aspect ratio            : 2.40:1

Frame rate mode                          : Constant

Frame rate                               : 23.976 (24000/1001) fps

Color space                              : YUV

Chroma subsampling                       : 4:2:0

Bit depth                                : 8 bits

Scan type                                : Progressive

Bits/(Pixel*Frame)                       : 0.101

Stream size                              : 2.65 GiB (64%)

Writing library                          : x264 core 142 r2479 dd79a61

Encoding settings                        : cabac=1 / ref=1 / deblock=1:0:0 / analyse=0x1:0x111 / me=hex / subme=2 / psy=1 / psy_rd=1.00:0.00 / mixed_ref=0 / me_range=16 / chroma_me=1 / trellis=0 / 8x8dct=0 / cqm=0 / deadzone=21,11 / fast_pskip=1 / chroma_qp_offset=0 / threads=6 / lookahead_threads=2 / sliced_threads=0 / nr=0 / decimate=1 / interlaced=0 / bluray_compat=0 / constrained_intra=0 / bframes=3 / b_pyramid=2 / b_adapt=1 / b_bias=0 / direct=1 / weightb=1 / open_gop=0 / weightp=1 / keyint=240 / keyint_min=24 / scenecut=40 / intra_refresh=0 / rc_lookahead=10 / rc=crf / mbtree=1 / crf=20.0 / qcomp=0.60 / qpmin=0 / qpmax=69 / qpstep=4 / vbv_maxrate=20000 / vbv_bufsize=25000 / crf_max=0.0 / nal_hrd=none / filler=0 / ip_ratio=1.40 / aq=1:1.00

Language                                 : Thai

Default                                  : Yes

Forced                                   : Yes

Color range                              : Limited

Color primaries                          : BT.709

Transfer characteristics                 : BT.709

Matrix coefficients                      : BT.709

Statistics Tags Issue                    : mkvmerge v8.3.0 ('Over the Horizon') 64bit 2016-10-30 23:07:19 / mkvmerge v8.3.0 ('Over the Horizon') 64bit 2016-10-30 23:07:19 / UTC 2016-10-30T14:47:05Z

FromStats_BitRate                        : 3801440

FromStats_Duration                       : 01:42:29.161000000

FromStats_FrameCount                     : 147432

FromStats_StreamSize                     : 2921959016

Audio #1

ID                                       : 2

Format                                   : DTS

Format/Info                              : Digital Theater Systems

Format profile                           : ES Matrix / Core

Mode                                     : 16

Format settings, Endianness              : Big

Codec ID                                 : A_DTS

Duration                                 : 1h 42mn

Bit rate mode                            : Constant

Bit rate                                 : 1 509 Kbps

Channel(s)                               : 7 channels / 6 channels

Channel positions                        : Front: L C R, Side: L R, Back: C, LFE / Front: L C R, Side: L R, LFE

Sampling rate                            : 48.0 KHz

Frame rate                               : 93.750 fps (512 spf)

Bit depth                                : 24 bits

Compression mode                         : Lossy

Stream size                              : 1.08 GiB (26%)

Title                                    : Surround

Language                                 : English

Default                                  : No

Forced                                   : No

Statistics Tags Issue                    : mkvmerge v8.3.0 ('Over the Horizon') 64bit 2016-10-30 23:07:19 / mkvmerge v8.3.0 ('Over the Horizon') 64bit 2016-10-30 23:07:19 / UTC 2016-10-30T14:47:05Z

FromStats_BitRate                        : 1508999

FromStats_Duration                       : 01:42:29.142000000

FromStats_FrameCount                     : 576482

FromStats_StreamSize                     : 1159881784

Audio #2

ID                                       : 3

Format                                   : AC-3

Format/Info                              : Audio Coding 3

Mode extension                           : CM (complete main)

Format settings, Endianness              : Big

Codec ID                                 : A_AC3

Duration                                 : 1h 42mn

Bit rate mode                            : Constant

Bit rate                                 : 448 Kbps

Channel(s)                               : 6 channels

Channel positions                        : Front: L C R, Side: L R, LFE

Sampling rate                            : 48.0 KHz

Frame rate                               : 31.250 fps (1536 spf)

Compression mode                         : Lossy

Stream size                              : 328 MiB (8%)

Title                                    : Surround

Language                                 : Thai

Default                                  : Yes

Forced                                   : Yes

Statistics Tags Issue                    : mkvmerge v8.3.0 ('Over the Horizon') 64bit 2016-10-30 23:07:19 / mkvmerge v8.3.0 ('Over the Horizon') 64bit 2016-10-30 23:07:19 / UTC 2016-10-30T14:47:05Z

FromStats_BitRate                        : 448000

FromStats_Duration                       : 01:42:29.152000000

FromStats_FrameCount                     : 192161

FromStats_StreamSize                     : 344352512

Text #1

ID                                       : 4

Format                                   : PGS

Muxing mode                              : zlib

Codec ID                                 : S_HDMV/PGS

Codec ID/Info                            : Picture based subtitle format used on BDs/HD-DVDs

Language                                 : English

Default                                  : No

Forced                                   : No

Statistics Tags Issue                    : mkvmerge v8.3.0 ('Over the Horizon') 64bit 2016-10-30 23:07:19 / mkvmerge v8.3.0 ('Over the Horizon') 64bit 2016-10-30 23:07:19 / UTC 2016-10-30T14:47:05Z

FromStats_BitRate                        : 10378

FromStats_Duration                       : 01:33:26.415000000

FromStats_FrameCount                     : 2521

FromStats_StreamSize                     : 7273096

Text #2

ID                                       : 5

Format                                   : PGS

Muxing mode                              : zlib

Codec ID                                 : S_HDMV/PGS

Codec ID/Info                            : Picture based subtitle format used on BDs/HD-DVDs

Language                                 : Thai

Default                                  : Yes

Forced                                   : Yes

Statistics Tags Issue                    : mkvmerge v8.3.0 ('Over the Horizon') 64bit 2016-10-30 23:07:19 / mkvmerge v8.3.0 ('Over the Horizon') 64bit 2016-10-30 23:07:19 / UTC 2016-10-30T14:47:05Z

FromStats_BitRate                        : 7431

FromStats_Duration                       : 01:41:29.731000000

FromStats_FrameCount                     : 2523

FromStats_StreamSize                     : 5656928

Menu

00:00:00.000                             : :Chapter 1

00:04:59.650                             : :Chapter 2

00:09:59.950                             : :Chapter 3

00:14:59.624                             : :Chapter 4

00:19:59.674                             : :Chapter 5

00:24:59.807                             : :Chapter 6

00:30:00.024                             : :Chapter 7

00:35:00.073                             : :Chapter 8

00:39:59.372                             : :Chapter 9

00:44:59.214                             : :Chapter 10

00:49:59.180                             : :Chapter 11

00:54:59.605                             : :Chapter 12

00:59:59.321                             : :Chapter 13

01:04:59.705                             : :Chapter 14

01:09:59.170                             : :Chapter 15

01:14:59.387                             : :Chapter 16

01:19:59.145                             : :Chapter 17

01:24:59.612                             : :Chapter 18

01:29:59.995                             : :Chapter 19

01:34:59.336                             : :Chapter 20

01:39:59.177                             : :Chapter 21



โหลดฟรี100%
หมวดหมู่การ์ตูน
ขนาด4.14 GB (4,441,249,803 bytes)
อัพโหลดเมื่อ2016-11-16 20:54:56 (3 ปี)
ปล่อยล่าสุด2020-03-26 17:41:02 (3 เดือน)
โหลดเสร็จ236 ครั้ง
แบ่งปันโดยSeedy
จำนวนไฟล์
[ดูรายการเต็ม]
โหลด/ปล่อย
[ดูรายการเต็ม]
0 ปล่อย, 2 โหลด = 2 เพียร์