สมัครสมาชิกฟรี


เข้าสู่ระบบ


Game Of Thrones Complete Season 1-5 (2011-2015) [MINIHD 1080P] [Encode.H.264.AC3.MKV.1080P.] [เสียง:ไทย-อังกฤษ] [บรรยาย:ไทย-อังกฤษ]-Blu-ray.H.264.1080p.






Game Of Thrones Complete Season 1-5 (2011-2015) มหาศึกชิงบัลลังก์ ปี 1-5

ประเภท Fantasy,Serial drama

สร้างโดย Series:David Benioff,D. B. Weiss

Novels:George R. R. Martin

เขียนโดย David Benioff,D. B. Weiss,Bryan Cogman,Jane Espenson,George R. R. Martin

กำกับโดย Tim Van Patten,Brian Kirk,Daniel Minahan,Alan Taylor

แสดงนำ Sean Bean,Mark Addy,Michelle Fairley,Nikolaj Coster-Waldau,Lena Headey,Emilia Clarke,Iain Glen,Aidan Gillen,Harry Lloyd,Kit Harington,Richard Madden,Sophie Turner,Maisie Williams,Alfie Allen,Isaac Hempstead Wright,Jack Gleeson,Rory McCann,Peter Dinklage,Jason Momoa

ผู้ประพันธ์ Ramin Djawadi

ประเทศแหล่งกำเนิด สหรัฐอเมริกา

ภาษาต้นฉบับ อังกฤษ

จำนวนฤดูกาล 5

จำนวนตอน 50

ฝ่ายบริหาร David Benioff,D. B. Weiss

ผู้อำนวยการสร้าง Mark Huffam,Frank Doelger

ที่ตั้ง Northern Ireland,Croatia,Iceland,Morocco,Malta,Spain,Scotland,United States

ผู้กำกับภาพ Alik Sakharov,Marco Pontecorvo,Matthew Jensen

กล้อง Arri Alexa

ความยาวตอน 50 – 65 นาที

บริษัทผู้ผลิต HBO, Created By, Management 360

ผู้จำหน่าย HBO

เครือข่าย/ช่อง เอชบีโอ

ออกอากาศครั้งแรก สหรัฐอเมริกา

การออกอากาศแรก การออกอากาศแรก 17 เมษายน 2554 – ปัจจุบัน

เรื่องย่อ

   ละครชุดทางโทรทัศน์ชุดนี้ติดตามเรื่องราวหลายสายในเรื่องชุดอะซองออฟไอซ์แอนไฟร์ไปพร้อมๆกัน ผู้เขียนนิยายต้นฉบับกล่าวไว้ว่าบทละครของตอนแรกนั้นซื่อสัตย์ต่องานเขียนของเขาอย่างมาก ฉากของเรื่องอยู่ในอาณาจักรทั้งเจ็ดแห่งเวสเทรอส ซึ่ง "ฤดูร้อนยาวนานหลายทศวรรษ และฤดูหนาวอาจยาวนานจนชั่วชีวิต" เกมออฟโธรนส์เล่าเรื่องราวความขัดแย้งของสมาชิกครอบครัวชนชั้นสูงในจักรวรรดิต่างๆ เพื่อครองบัลลังก์เหล็กตั้งแต่ต้นเรื่อง นอกจากนี้ยังเล่าเรื่องราวเกี่ยวกับภัยคุกคามจากดินแดนตอนเหนือของเวสเทรอสอันมีหิมะและน้ำแข็งปกคลุม พร้อมกับภัยจากทวีปฝั่งตะวันออก พ้นจากทะเลแคบไป ซึ่งค่อยปะทุขึ้นพร้อมๆ กัน

General

Unique ID                        : 249317160996928953627451779915373305095 (0xBB90BD14FA8D8307895659C578075D07)

Complete name                    : G:downloadGame of Thrones Season 1-5Game of Thrones Season 3Game.of.Thrones.S03E05.mkv

Format                           : Matroska

File size                        : 2.28 GiB

Duration                         : 57mn 25s

Overall bit rate                 : 5 696 Kbps

Encoded date                     : UTC 2015-06-02 21:22:57

Writing application              : mkvmerge v7.7.0 ( Six Voices ) 32bit built on Feb 28 2015 23:23:00

Writing library                  : libebml v1.3.1 + libmatroska v1.4.2

Video

ID                               : 1

Format                           : AVC

Format/Info                      : Advanced Video Codec

Format profile                   : High@L4.0

Format settings, CABAC           : Yes

Format settings, ReFrames        : 4 frames

Codec ID                         : V_MPEG4/ISO/AVC

Duration                         : 57mn 25s

Bit rate                         : 4 815 Kbps

Width                            : 1 920 pixels

Height                           : 1 080 pixels

Display aspect ratio             : 16:9

Frame rate                       : 23.976 fps

Color space                      : YUV

Chroma subsampling               : 4:2:0

Bit depth                        : 8 bits

Scan type                        : Progressive

Bits/(Pixel*Frame)               : 0.097

Stream size                      : 1.93 GiB (85%)

Language                         : English

Color primaries                  : BT.709-5, BT.1361, IEC 61966-2-4, SMPTE RP177

Transfer characteristics         : BT.709-5, BT.1361

Matrix coefficients              : BT.709-5, BT.1361, IEC 61966-2-4 709, SMPTE RP177

Audio #1

ID                               : 2

Format                           : AC-3

Format/Info                      : Audio Coding 3

Mode extension                   : CM (complete main)

Codec ID                         : A_AC3

Duration                         : 57mn 25s

Bit rate mode                    : Constant

Bit rate                         : 384 Kbps

Channel(s)                       : 6 channels

Channel positions                : Front: L C R, Side: L R, LFE

Sampling rate                    : 48.0 KHz

Bit depth                        : 16 bits

Compression mode                 : Lossy

Stream size                      : 158 MiB (7%)

Language                         : English

Audio #2

ID                               : 5

Format                           : AC-3

Format/Info                      : Audio Coding 3

Mode extension                   : CM (complete main)

Codec ID                         : A_AC3

Duration                         : 57mn 25s

Bit rate mode                    : Constant

Bit rate                         : 384 Kbps

Channel(s)                       : 6 channels

Channel positions                : Front: L C R, Side: L R, LFE

Sampling rate                    : 48.0 KHz

Bit depth                        : 16 bits

Compression mode                 : Lossy

Stream size                      : 158 MiB (7%)

Title                            : SoundTH-By.Tz

Language                         : Thai

Text #1

ID                               : 3

Format                           : UTF-8

Codec ID                         : S_TEXT/UTF8

Codec ID/Info                    : UTF-8 Plain Text

Language                         : Thai

Text #2

ID                               : 4

Format                           : UTF-8

Codec ID                         : S_TEXT/UTF8

Codec ID/Info                    : UTF-8 Plain Text

Language                         : English





































โหลดฟรี100%
หมวดหมู่Series
ขนาด43.50 GB (46,702,842,980 bytes)
อัพโหลดเมื่อ2016-05-10 13:33:55 (4 ปี)
ปล่อยล่าสุด2020-06-07 22:41:02 (1 เดือน)
โหลดเสร็จ471 ครั้ง
Tag US-Series
แบ่งปันโดยSeedy
จำนวนไฟล์
[ดูรายการเต็ม]
โหลด/ปล่อย
[ดูรายการเต็ม]
0 ปล่อย, 1 โหลด = 1 เพียร์