สมัครสมาชิกฟรี


เข้าสู่ระบบ


[NETFLIX] Khun Tongdaeng - The Inspirations (2015) คุณทองแดง ดิ อินสไปเรชั่นส์ 1080p. [พากย์ไทย บรรยายไทย]

[NETFLIX] Khun Tongdaeng - The Inspirations (2015) คุณทองแดง ดิ อินสไปเรชั่นส์ 1080p. [พากย์ไทย บรรยายไทย]



เรื่องย่อ

เรื่องราวที่ได้รับแรงบันดาลใจจากพระราชนิพนธ์เรื่อง “ทองแดง” ซึ่งเป็นสุนัขทรงเลี้ยงยอดกตัญญูในพระบาทสมเด็จพระเจ้าอยู่หัว โดยมีการนำเสนอ 3 เรื่องสั้นประกอบการเล่าเรื่องราวที่แสดงให้เห็นถึงคุณค่าความดีงามของสิ่งมีชีวิตที่หลายคนอาจมองว่าไร้ค่า แต่กลับมีหัวใจที่สูงส่งจากความซื่อสัตย์ที่มีต่อผู้มีพระคุณเฉดเช่นคุณทองแดงที่มีถวายแก่พระบาทสมเด็จพระเจ้าอยู่หัวที่เป็นผู้ทรงชุบเลี้ยงคุณทองแดงจากสุนัขธรรมดาสู่การเป็นสุนัขทรงเลี้ยงที่สง่างามทั้งท่วงท่าและหัวใจที่กล้าหาญ โดยสำหรับเรื่องราวทั้ง 3 ตอน นั้น ประกอบด้วย…

Format                      : Matroska

Format version              : Version 4

File size                   : 2.46 GiB

Duration                    : 1 h 35 min

Overall bit rate            : 3 701 kb/s

Encoded date                : UTC 2020-04-01 17:09:26

Writing application         : mkvmerge v44.0.0 ('Domino') 64-bit

Writing library             : libebml v1.3.10 + libmatroska v1.5.2

Video

ID                          : 1

Format                      : AVC

Format/Info                 : Advanced Video Codec

Format profile              : High@L4

Format settings             : CABAC / 3 Ref Frames

Format settings, CABAC      : Yes

Format settings, Reference  : 3 frames

Codec ID                    : V_MPEG4/ISO/AVC

Duration                    : 1 h 35 min

Bit rate                    : 3 013 kb/s

Width                       : 1 920 pixels

Height                      : 1 080 pixels

Display aspect ratio        : 16:9

Frame rate mode             : Constant

Frame rate                  : 25.000 FPS

Color space                 : YUV

Chroma subsampling          : 4:2:0

Bit depth                   : 8 bits

Scan type                   : Progressive

Bits/(Pixel*Frame)          : 0.058

Stream size                 : 2.01 GiB (81%)

Language                    : Thai

Default                     : Yes

Forced                      : No

Audio

ID                          : 2

Format                      : E-AC-3

Format/Info                 : Enhanced AC-3

Commercial name             : Dolby Digital Plus

Codec ID                    : A_EAC3

Duration                    : 1 h 35 min

Bit rate mode               : Constant

Bit rate                    : 640 kb/s

Channel(s)                  : 6 channels

Channel layout              : L R C LFE Ls Rs

Sampling rate               : 48.0 kHz

Frame rate                  : 31.250 FPS (1536 SPF)

Compression mode            : Lossy

Delay relative to video     : -80 ms

Stream size                 : 436 MiB (17%)

Title                       : AC-3 Thai

Language                    : Thai

Service kind                : Complete Main

Default                     : Yes

Forced                      : No

Text #1

ID                          : 3

Format                      : VobSub

Muxing mode                 : zlib

Codec ID                    : S_VOBSUB

Codec ID/Info               : Picture based subtitle format used on DVDs

Duration                    : 1 h 33 min

Bit rate                    : 11.8 kb/s

Count of elements           : 1289

Stream size                 : 7.89 MiB (0%)

Title                       : Sub Thai 1080p

Language                    : Thai

Default                     : No

Forced                      : No

Text #2

ID                          : 4

Format                      : UTF-8

Codec ID                    : S_TEXT/UTF8

Codec ID/Info               : UTF-8 Plain Text

Duration                    : 1 h 33 min

Bit rate                    : 134 b/s

Count of elements           : 1289

Stream size                 : 92.0 KiB (0%)

Title                       : Sub Thai SRT

Language                    : Thai

Default                     : No

Forced                      : No

Text #3

ID                          : 5

Format                      : PGS

Muxing mode                 : zlib

Codec ID                    : S_HDMV/PGS

Codec ID/Info               : Picture based subtitle format used on BDs/HD-DVDs

Duration                    : 1 h 33 min

Bit rate                    : 37.3 kb/s

Count of elements           : 2578

Stream size                 : 25.0 MiB (1%)

Title                       : Sub Thai PGS

Language                    : Thai

Default                     : Yes

Forced                      : No

Text #4

ID                          : 6

Format                      : VobSub

Muxing mode                 : zlib

Codec ID                    : S_VOBSUB

Codec ID/Info               : Picture based subtitle format used on DVDs

Duration                    : 1 h 34 min

Bit rate                    : 10.1 kb/s

Count of elements           : 1287

Stream size                 : 6.85 MiB (0%)

Title                       : Sub English 1080p

Language                    : English

Default                     : No

Forced                      : No

Text #5

ID                          : 7

Format                      : UTF-8

Codec ID                    : S_TEXT/UTF8

Codec ID/Info               : UTF-8 Plain Text

Duration                    : 1 h 34 min

Bit rate                    : 51 b/s

Count of elements           : 1287

Stream size                 : 35.6 KiB (0%)

Title                       : Sub English SRT

Language                    : English

Default                     : No

Forced                      : No

Text #6

ID                          : 8

Format                      : PGS

Muxing mode                 : zlib

Codec ID                    : S_HDMV/PGS

Codec ID/Info               : Picture based subtitle format used on BDs/HD-DVDs

Duration                    : 1 h 34 min

Bit rate                    : 32.8 kb/s

Count of elements           : 2574

Stream size                 : 22.3 MiB (1%)

Title                       : Sub English PGS

Language                    : English

Default                     : No

Forced                      : No



โหลดฟรี100%
หมวดหมู่การ์ตูน
ขนาด2.46 GB (2,646,471,773 bytes)
อัพโหลดเมื่อ2020-06-06 20:45:02 (1 เดือน)
โหลดเสร็จ91 ครั้ง
Tag พากษ์ไทย
แบ่งปันโดยitto1978
จำนวนไฟล์
[ดูรายการเต็ม]
โหลด/ปล่อย
[ดูรายการเต็ม]
8 ปล่อย, 1 โหลด = 9 เพียร์